【SACD俱乐部】SACD CLUB - SACD及DSD、Hires、MQA音乐资源百度网盘免费下载

 找回密码
 立及住厕
搜索
热搜: FLAC Hi-Res HDTracks

[华语音乐] [台版自压]田馥甄 - 日常 2016 [FLAC+CUE+LOG/16/44.1]

[复制链接]
401 |7
发表于 2020-5-12 19:54:16 | 显示全部楼层 |阅读模式
本帖最后由 Sor9ry 于 2020-5-21 11:04 编辑

封面:
cover.jpg

简介:
.傾聽田馥甄的『日常』
陳珊妮、周耀輝、施人誠、葛大為、黃韻仁、姚若龍、崔欽翔(謊言留聲機)、王治平、藍小邪、麻吉弟弟、馬毓芬、鄭楠、李雙飛、徐世珍、黃淑惠、文慧如…
集結華語樂壇頂尖音樂團隊,聯手打造十首最不平常的日常專輯!
音樂曲風更囊括輕電搖滾、Trip Hop、藍調靈魂、 世界民謠、電子民謠、抒情搖滾等各種不同樣貌的日常。

.珍藏田馥甄的『日常』
田馥甄全新『日常』實體專輯,整張專輯以特殊螢光油墨印製,特殊洗標設計打造幽默玩趣的日常感,純手工包裝,每一個步驟都細膩呈現田馥甄的日常不平常的細節。

.觀看田馥甄的『日常』
田馥甄首次跨界舞台劇與莎士比亞的妹妹們劇團共譜『小夜曲』!
劇團界的當紅編導王嘉明、鬼才導演Baboo,從田馥甄新專輯『日
常』的五首歌曲,串連起一個關於夜的故事,共創全新形式的戲劇演出。

曲目:
01. 日常
02. 人間煙火
03. 無用
04. 身體都知道
05. 念念有詞
06. 靈魂伴侶
07. 餘波盪漾
08. 什麼,哪裡
09. 慢舞
10. 獨善其身

试听(可选):

下载地址:Exact Audio Copy V1.3 from 2. September 2016

EAC extraction logfile from 3. May 2017, 16:54

田馥甄 / 日常

Used drive  : PIONEER BD-RW   BDR-S09   Adapter: 1  ID: 0

Read mode               : Secure
Utilize accurate stream : Yes
Defeat audio cache      : Yes
Make use of C2 pointers : No

Read offset correction                      : 667
Overread into Lead-In and Lead-Out          : No
Fill up missing offset samples with silence : Yes
Delete leading and trailing silent blocks   : No
Null samples used in CRC calculations       : Yes
Used interface                              : Native Win32 interface for Win NT & 2000

Used output format : Internal WAV Routines
Sample format      : 44.100 Hz; 16 Bit; Stereo


TOC of the extracted CD

     Track |   Start  |  Length  | Start sector | End sector
    ---------------------------------------------------------
        1  |  0:00.00 |  2:53.36 |         0    |    13010   
        2  |  2:53.36 |  4:05.39 |     13011    |    31424   
        3  |  6:59.00 |  4:09.25 |     31425    |    50124   
        4  | 11:08.25 |  3:57.06 |     50125    |    67905   
        5  | 15:05.31 |  3:21.22 |     67906    |    83002   
        6  | 18:26.53 |  4:40.14 |     83003    |   104016   
        7  | 23:06.67 |  4:52.61 |    104017    |   125977   
        8  | 27:59.53 |  4:19.47 |    125978    |   145449   
        9  | 32:19.25 |  4:05.03 |    145450    |   163827   
       10  | 36:24.28 |  3:47.27 |    163828    |   180879   


Range status and errors

Selected range

     Filename D:\田馥甄 - 日常.wav

     Peak level 100.0 %
     Extraction speed 6.7 X
     Range quality 100.0 %
     Copy CRC F3F4AA81
     Copy OK

No errors occurred


AccurateRip summary

Track  1  accurately ripped (confidence 3)  [8CBC148F]  (AR v2)
Track  2  accurately ripped (confidence 3)  [D2864503]  (AR v2)
Track  3  accurately ripped (confidence 3)  [A62C0AA7]  (AR v2)
Track  4  accurately ripped (confidence 3)  [118D307C]  (AR v2)
Track  5  accurately ripped (confidence 3)  [D4A7F5DC]  (AR v2)
Track  6  accurately ripped (confidence 3)  [72766EC7]  (AR v2)
Track  7  accurately ripped (confidence 3)  [C17BCBC1]  (AR v2)
Track  8  accurately ripped (confidence 3)  [6E565430]  (AR v2)
Track  9  accurately ripped (confidence 3)  [056B74A4]  (AR v2)
Track 10  accurately ripped (confidence 3)  [0DD871D6]  (AR v2)

All tracks accurately ripped

End of status report

---- AcoustID Plugin V1.2.0

Total fingerprints: 10


---- CUETools DB Plugin V2.1.6

[CTDB TOCID: MNty8oE7rn2OgGpJcVZaxEERaTE-] found
Submit result: already submitted
Track | CTDB Status
  1   | (92/92) Accurately ripped
  2   | (92/92) Accurately ripped
  3   | (92/92) Accurately ripped
  4   | (92/92) Accurately ripped
  5   | (92/92) Accurately ripped
  6   | (92/92) Accurately ripped
  7   | (92/92) Accurately ripped
  8   | (92/92) Accurately ripped
  9   | (92/92) Accurately ripped
10   | (92/92) Accurately ripped


==== Log checksum 64AA601A6B56BFAF38E0E04ECE09427D82FE49B35693EF0E979FCF6E590BEF54 ====
支付8新币支付



回复

使用道具 举报

发表于 2020-5-15 00:19:40 | 显示全部楼层
可以壓wav整軌嗎?
回复 支持 反对

使用道具 举报

楼主 发表于 2020-5-15 17:48:02 | 显示全部楼层
jkyon88 发表于 2020-5-15 00:19
可以壓wav整軌嗎?

碟不在了,再者已經100分log了
回复 支持 反对

使用道具 举报

发表于 2020-5-16 00:26:26 来自手机 | 显示全部楼层
強迫症。還是謝謝你哦。
回复 支持 反对

使用道具 举报

发表于 2021-5-18 18:57:58 | 显示全部楼层
谢谢楼主分享好歌
回复 支持 反对

使用道具 举报

发表于 2021-5-19 08:15:12 | 显示全部楼层
谢谢楼主分享 ^^
田馥甄好可愛.....
回复 支持 反对

使用道具 举报

发表于 2021-5-19 22:47:16 | 显示全部楼层
thanks for sharing
回复 支持 反对

使用道具 举报

发表于 2021-5-20 00:27:34 | 显示全部楼层
感谢楼主无私分享
回复 支持 反对

使用道具 举报

您需要登录后才可以回帖 登录 | 立及住厕

本版积分规则

推荐资源
新帖列表
本周热门
快速回复 返回顶部 返回列表